2016年上映的《佐州自救兄弟2》[MP4][BT][ed2k][手机在线视频观看][迅雷下载][免费观看][完整版][未删减][高清电影] 手机MP4在线观看

来源:专片网手机版  发布时间:2019-03-15 16:19:43  编辑:强哥哥

片名:佐州自救兄弟2

状态:[MP4][BT][ed2k][手机在线视频观看][迅雷下载][免费观看][完整版][未删减][高清电影]       年份:2016

类型:喜剧片

导演:

主演:

佐州自救兄弟2下载地址 点我下载

佐州自救兄弟2在线观看海报

佐州自救兄弟2电影海报

佐州自救兄弟2影片剧照1

佐州自救兄弟2 2016


导演: 蒂姆·斯托瑞
编剧: 费尔·海伊 / 马特·曼弗莱迪 / 格雷格·库利奇
主演: 艾斯·库珀 / 凯文·哈特 / 肯·郑 / 本杰明·布拉特 / 奥立薇娅·玛恩
类型: 喜剧 / 动作
官方网站: www.ridealong.com
制片国家/地区: 美国
语言: 英语
上映日期: 2016-01-15(美国)
片长: 102分钟
又名: 一路前行2(台)
IMDb链接: tt2869728


佐州自救兄弟2的剧情简介  ·  ·  ·  ·  ·  ·
  故事发生在第一部的一年后,菜鸟警察本(凯文·哈特 Kevin Hart 饰)与他的大舅子、老鸟警官詹姆斯(艾斯·库珀 Ice Cube 饰)再度联手,从亚特兰大前往迈阿密侦破一桩毒品大案。案件能否顺利侦破?本的婚礼能否如期举行?


佐州自救兄弟2电影截图








佐州自救兄弟2视频参数
Video
ID                                       : 1
Format                                   : AVC
Format/Info                              : Advanced Video Codec
Format profile                           : High@L4
Format settings, CABAC                   : Yes
Format settings, ReFrames                : 3 frames
Codec ID                                 : avc1
Codec ID/Info                            : Advanced Video Coding
Duration                                 : 1h 41mn
Bit rate                                 : 1 653 Kbps
Width                                    : 1 920 pixels
Height                                   : 800 pixels
Display aspect ratio                     : 2.40:1
Frame rate mode                          : Constant
Frame rate                               : 23.976 (24000/1001) fps
Color space                              : YUV
Chroma subsampling                       : 4:2:0
Bit depth                                : 8 bits
Scan type                                : Progressive
Bits/(Pixel*Frame)                       : 0.045
Stream size                              : 1.17 GiB (88%)
Title                                    : Ride.Along.2.2016.1080p.HC.WEBRip.x264.AAC2.0-STUTTERSHIT
Color range                              : Limited
Color primaries                          : BT.709
Transfer characteristics                 : BT.709
Matrix coefficients                      : BT.709

Audio
ID                                       : 2
Format                                   : AAC
Format/Info                              : Advanced Audio Codec
Format profile                           : LC
Codec ID                                 : 40
Duration                                 : 1h 41mn
Bit rate mode                            : Constant
Bit rate                                 : 224 Kbps
Channel(s)                               : 2 channels
Channel positions                        : Front: L R
Sampling rate                            : 44.1 KHz
Frame rate                               : 43.066 fps (1024 spf)
Compression mode                         : Lossy
Stream size                              : 163 MiB (12%)
Title                                    : Ride.Along.2.2016.1080p.HC.WEBRip.x264.AAC2.0-STUTTERSHIT
Default                                  : Yes
Alternate group                          : 1

喜剧片《佐州自救兄弟2》于2016年上映的,专片网已更新[MP4][BT][ed2k][手机在线视频观看][迅雷下载][免费观看][完整版][未删减][高清电影]高清迅雷下载BT种子资源,佐州自救兄弟2[MP4][BT][ed2k][手机在线视频观看][迅雷下载][免费观看][完整版][未删减][高清电影]版本,佐州自救兄弟2是一部喜剧片,关于的影片.

佐州自救兄弟2电影完整版在线下载观看,佐州自救兄弟2迅雷下载,程序自动抓取佐州自救兄弟2西瓜影音、佐州自救兄弟2吉吉影音、QVOD快播、腾讯视频、搜狐、优酷、土豆网、乐视网、爱奇艺和百度云盘网盘等免费在线播放观看方式,提供mp4,BD720p,HD1080p高清版、国语版、粤语版等BT种子资源高清下载,哪里有高清的佐州自救兄弟2完整未删减版下载?佐州自救兄弟2什么时候上映播出?佐州自救兄弟2哪里下载?喜欢更多喜剧片的友友,可以关注专片网,请关注专片网:zhuanpian.com 第一时间提供专业大片下载,欢迎把《佐州自救兄弟2》网址发送给QQ,微信,微博的好友分享!

佐州自救兄弟2在线播放

BT种子迅雷下载资源,支持手机迅雷迅雷,UC浏览器下载

《佐州自救兄弟2》同类型影片 喜欢就